Tokyo Hot n0557 本田絵美 巨乳炉利30人無差別膣射 Emi Honda 720p

Cover




Description


[HDWMV/2.98G] Tokyo Hot n0557 本田絵美 巨乳炉利30人無差別膣射 Emi Honda

Screen




Download

uploadstation
http://www.uploadstation.com/file/NtTnNem
http://www.uploadstation.com/file/ysZJDuE
http://www.uploadstation.com/file/tx3Qwpa
http://www.uploadstation.com/file/qnq5sEy
http://www.uploadstation.com/file/aZFd5Hz
http://www.uploadstation.com/file/mewuAm2
http://www.uploadstation.com/file/ukhsWZA

filesonic
http://www.filesonic.com/file/860866934
http://www.filesonic.com/file/860889764
http://www.filesonic.com/file/860889824
http://www.filesonic.com/file/860889804
http://www.filesonic.com/file/860889814
http://www.filesonic.com/file/860889654
http://www.filesonic.com/file/860877604

Tokyo Hot n0559 日向夏見 モデル系強制吸飲中出し汁 Natsumi Hinata "Erotic model" 720p

Cover




Description


[HDWMV/2.94G] Tokyo Hot n0559 日向夏見 モデル系強制吸飲中出し汁 Natsumi Hinata "Erotic model"

Screen






Download

uploadstation
http://www.uploadstation.com/file/ZSkEVsm
http://www.uploadstation.com/file/6kMv2NJ
http://www.uploadstation.com/file/G6nEwJQ
http://www.uploadstation.com/file/4pfftG3
http://www.uploadstation.com/file/jyafBvW
http://www.uploadstation.com/file/qMcScgB

filesonic
http://www.filesonic.com/file/860038924
http://www.filesonic.com/file/860059404
http://www.filesonic.com/file/860059614
http://www.filesonic.com/file/860054244
http://www.filesonic.com/file/860063174
http://www.filesonic.com/file/860063204
http://www.filesonic.com/file/860049024

题目 : 720p Porn Video
博客分类 : 成人话题

Kama-Sutra Secrets to the Art of Love 3D Anaglyph DVDRip

Cover




Description


Video
ID : 0
Format : MPEG-4 Visual
Format profile : Advanced Simple@L5
Format settings, BVOP : 2
Format settings, QPel : No
Format settings, GMC : No warppoints
Format settings, Matrix : Default (MPEG)
Muxing mode : Packed bitstream
Codec ID : XVID
Codec ID/Hint : XviD
Duration : 1h 15mn
Bit rate : 1 157 Kbps
Width : 544 pixels
Height : 384 pixels
Display aspect ratio : 1.417
Frame rate : 29.970 fps
Color space : YUV
Chroma subsampling : 4:2:0
Bit depth : 8 bits
Scan type : Progressive
Compression mode : Lossy
Bits/(Pixel*Frame) : 0.185
Stream size : 624 MiB (89%)

Audio
ID : 1
Format : MPEG Audio
Format version : Version 1
Format profile : Layer 3
Mode : Joint stereo
Mode extension : MS Stereo
Codec ID : 55
Codec ID/Hint : MP3
Duration : 1h 15mn
Bit rate mode : Constant
Bit rate : 128 Kbps
Channel(s) : 2 channels
Sampling rate : 48.0 KHz
Compression mode : Lossy
Stream size : 69.1 MiB (10%)
Language : English

Screen





Download

uploadstation
http://www.uploadstation.com/file/r5S2DJX
http://www.uploadstation.com/file/Rxutuqm

filesonic
http://www.filesonic.com/file/822413644
http://www.filesonic.com/file/822420901

题目 : 3D Porn Video
博客分类 : 成人话题

MILF Memoirs 3D Anaglyph DVDRip

Cover




Description

Video
ID : 0
Format : MPEG-4 Visual
Format profile : Advanced Simple@L5
Format settings, BVOP : 2
Format settings, QPel : No
Format settings, GMC : No warppoints
Format settings, Matrix : Default (H.263)
Codec ID : XVID
Codec ID/Hint : XviD
Duration : 3h 5mn
Bit rate : 924 Kbps
Width : 640 pixels
Height : 352 pixels
Display aspect ratio : 16:9
Frame rate : 29.970 fps
Color space : YUV
Chroma subsampling : 4:2:0
Bit depth : 8 bits
Scan type : Progressive
Compression mode : Lossy
Bits/(Pixel*Frame) : 0.137
Stream size : 1.20 GiB (87%)
Audio
ID : 1
Format : MPEG Audio
Format version : Version 1
Format profile : Layer 3
Mode : Joint stereo
Mode extension : MS Stereo
Codec ID : 55
Codec ID/Hint : MP3
Duration : 3h 5mn
Bit rate mode : Variable
Bit rate : 118 Kbps
Channel(s) : 2 channels
Sampling rate : 48.0 KHz
Compression mode : Lossy
Stream size : 157 MiB (11%)
Language : Englis

Screen






Download

uploadstation
http://www.uploadstation.com/file/TzFq28T
http://www.uploadstation.com/file/hQwRXGK
http://www.uploadstation.com/file/FDQAGXY
http://www.uploadstation.com/file/xYdBGMR

filesonic
http://www.filesonic.com/file/821608994
http://www.filesonic.com/file/821642601
http://www.filesonic.com/file/821638261
http://www.filesonic.com/file/821604621

fileserve
http://www.fileserve.com/file/XhW4vUb
http://www.fileserve.com/file/dMY66W8
http://www.fileserve.com/file/FeY9A9c
http://www.fileserve.com/file/gYMgYqR

题目 : 3D Porn Video
博客分类 : 成人话题

Full Lesbian Action 3D DVDRip

Description





Download

uploadstation
http://www.uploadstation.com/file/AKAmBd4
http://www.uploadstation.com/file/rYJETVn

filesonic
http://www.filesonic.com/file/820827671
http://www.filesonic.com/file/820812494

fileserve
http://www.fileserve.com/file/eXjgYKT
http://www.fileserve.com/file/8kXbq8d

题目 : 3D Porn Video
博客分类 : 成人话题

Profile

Author:AVHD
Welcome to AVHD's Blog

Monthly archive
Category
Search form
Display RSS link.
Link
Friend request form

Want to be friends with this user.