MILF Memoirs 3D Anaglyph DVDRip

Cover




Description

Video
ID : 0
Format : MPEG-4 Visual
Format profile : Advanced Simple@L5
Format settings, BVOP : 2
Format settings, QPel : No
Format settings, GMC : No warppoints
Format settings, Matrix : Default (H.263)
Codec ID : XVID
Codec ID/Hint : XviD
Duration : 3h 5mn
Bit rate : 924 Kbps
Width : 640 pixels
Height : 352 pixels
Display aspect ratio : 16:9
Frame rate : 29.970 fps
Color space : YUV
Chroma subsampling : 4:2:0
Bit depth : 8 bits
Scan type : Progressive
Compression mode : Lossy
Bits/(Pixel*Frame) : 0.137
Stream size : 1.20 GiB (87%)
Audio
ID : 1
Format : MPEG Audio
Format version : Version 1
Format profile : Layer 3
Mode : Joint stereo
Mode extension : MS Stereo
Codec ID : 55
Codec ID/Hint : MP3
Duration : 3h 5mn
Bit rate mode : Variable
Bit rate : 118 Kbps
Channel(s) : 2 channels
Sampling rate : 48.0 KHz
Compression mode : Lossy
Stream size : 157 MiB (11%)
Language : Englis

Screen






Download

uploadstation
http://www.uploadstation.com/file/TzFq28T
http://www.uploadstation.com/file/hQwRXGK
http://www.uploadstation.com/file/FDQAGXY
http://www.uploadstation.com/file/xYdBGMR

filesonic
http://www.filesonic.com/file/821608994
http://www.filesonic.com/file/821642601
http://www.filesonic.com/file/821638261
http://www.filesonic.com/file/821604621

fileserve
http://www.fileserve.com/file/XhW4vUb
http://www.fileserve.com/file/dMY66W8
http://www.fileserve.com/file/FeY9A9c
http://www.fileserve.com/file/gYMgYqR

题目 : 3D Porn Video
博客分类 : 成人话题

发表留言

Secre

Profile

Author:AVHD
Welcome to AVHD's Blog

Monthly archive
Category
Search form
Display RSS link.
Link
Friend request form

Want to be friends with this user.