Kama-Sutra Secrets to the Art of Love 3D Anaglyph DVDRip

Cover




Description


Video
ID : 0
Format : MPEG-4 Visual
Format profile : Advanced Simple@L5
Format settings, BVOP : 2
Format settings, QPel : No
Format settings, GMC : No warppoints
Format settings, Matrix : Default (MPEG)
Muxing mode : Packed bitstream
Codec ID : XVID
Codec ID/Hint : XviD
Duration : 1h 15mn
Bit rate : 1 157 Kbps
Width : 544 pixels
Height : 384 pixels
Display aspect ratio : 1.417
Frame rate : 29.970 fps
Color space : YUV
Chroma subsampling : 4:2:0
Bit depth : 8 bits
Scan type : Progressive
Compression mode : Lossy
Bits/(Pixel*Frame) : 0.185
Stream size : 624 MiB (89%)

Audio
ID : 1
Format : MPEG Audio
Format version : Version 1
Format profile : Layer 3
Mode : Joint stereo
Mode extension : MS Stereo
Codec ID : 55
Codec ID/Hint : MP3
Duration : 1h 15mn
Bit rate mode : Constant
Bit rate : 128 Kbps
Channel(s) : 2 channels
Sampling rate : 48.0 KHz
Compression mode : Lossy
Stream size : 69.1 MiB (10%)
Language : English

Screen





Download

uploadstation
http://www.uploadstation.com/file/r5S2DJX
http://www.uploadstation.com/file/Rxutuqm

filesonic
http://www.filesonic.com/file/822413644
http://www.filesonic.com/file/822420901

题目 : 3D Porn Video
博客分类 : 成人话题

发表留言

Secre

Profile

Author:AVHD
Welcome to AVHD's Blog

Monthly archive
Category
Search form
Display RSS link.
Link
Friend request form

Want to be friends with this user.